  0
SECTION
  2
HEADER
  9
$ACADVER
  1
AC1021
  9
$ACADMAINTVER
 70
     1
  9
$DWGCODEPAGE
  3
ANSI_1252
  9
$LASTSAVEDBY
  1
henry
  9
$INSBASE
 10
0.0
 20
0.0
 30
0.0
  9
$EXTMIN
 10
833.4900060214719
 20
799.056413961769
 30
0.0
  9
$EXTMAX
 10
911.5822230924454
 20
829.9644113210495
 30
0.0
  9
$LIMMIN
 10
0.0
 20
0.0
  9
$LIMMAX
 10
420.0
 20
297.0
  9
$ORTHOMODE
 70
     0
  9
$REGENMODE
 70
     1
  9
$FILLMODE
 70
     1
  9
$QTEXTMODE
 70
     0
  9
$MIRRTEXT
 70
     0
  9
$LTSCALE
 40
1.0
  9
$ATTMODE
 70
     1
  9
$TEXTSIZE
 40
2.5
  9
$TRACEWID
 40
1.0
  9
$TEXTSTYLE
  7
Lorient
  9
$CLAYER
  8
0
  9
$CELTYPE
  6
ByLayer
  9
$CECOLOR
 62
   256
  9
$CELTSCALE
 40
1.0
  9
$DISPSILH
 70
     0
  9
$DIMSCALE
 40
1.0
  9
$DIMASZ
 40
0.8
  9
$DIMEXO
 40
0.5
  9
$DIMDLI
 40
3.75
  9
$DIMRND
 40
0.0
  9
$DIMDLE
 40
0.0
  9
$DIMEXE
 40
0.5
  9
$DIMTP
 40
0.0
  9
$DIMTM
 40
0.0
  9
$DIMTXT
 40
1.5
  9
$DIMCEN
 40
2.5
  9
$DIMTSZ
 40
0.0
  9
$DIMTOL
 70
     0
  9
$DIMLIM
 70
     0
  9
$DIMTIH
 70
     0
  9
$DIMTOH
 70
     0
  9
$DIMSE1
 70
     0
  9
$DIMSE2
 70
     0
  9
$DIMTAD
 70
     1
  9
$DIMZIN
 70
     8
  9
$DIMBLK
  1

  9
$DIMASO
 70
     1
  9
$DIMSHO
 70
     1
  9
$DIMPOST
  1

  9
$DIMAPOST
  1

  9
$DIMALT
 70
     0
  9
$DIMALTD
 70
     3
  9
$DIMALTF
 40
0.03937007874016
  9
$DIMLFAC
 40
1.0
  9
$DIMTOFL
 70
     1
  9
$DIMTVP
 40
0.0
  9
$DIMTIX
 70
     0
  9
$DIMSOXD
 70
     0
  9
$DIMSAH
 70
     0
  9
$DIMBLK1
  1

  9
$DIMBLK2
  1

  9
$DIMSTYLE
  2
Lorient
  9
$DIMCLRD
 70
     0
  9
$DIMCLRE
 70
     0
  9
$DIMCLRT
 70
     0
  9
$DIMTFAC
 40
1.0
  9
$DIMGAP
 40
0.5
  9
$DIMJUST
 70
     0
  9
$DIMSD1
 70
     0
  9
$DIMSD2
 70
     0
  9
$DIMTOLJ
 70
     0
  9
$DIMTZIN
 70
     8
  9
$DIMALTZ
 70
     0
  9
$DIMALTTZ
 70
     0
  9
$DIMUPT
 70
     0
  9
$DIMDEC
 70
     2
  9
$DIMTDEC
 70
     2
  9
$DIMALTU
 70
     2
  9
$DIMALTTD
 70
     3
  9
$DIMTXSTY
  7
Lorient
  9
$DIMAUNIT
 70
     0
  9
$DIMADEC
 70
     0
  9
$DIMALTRND
 40
0.0
  9
$DIMAZIN
 70
     0
  9
$DIMDSEP
 70
    46
  9
$DIMATFIT
 70
     3
  9
$DIMFRAC
 70
     0
  9
$DIMLDRBLK
  1

  9
$DIMLUNIT
 70
     2
  9
$DIMLWD
 70
    -2
  9
$DIMLWE
 70
    -2
  9
$DIMTMOVE
 70
     0
  9
$DIMFXL
 40
1.0
  9
$DIMFXLON
 70
     0
  9
$DIMJOGANG
 40
0.7853981633974483
  9
$DIMTFILL
 70
     0
  9
$DIMTFILLCLR
 70
     0
  9
$DIMARCSYM
 70
     0
  9
$DIMLTYPE
  6

  9
$DIMLTEX1
  6

  9
$DIMLTEX2
  6

  9
$LUNITS
 70
     2
  9
$LUPREC
 70
     4
  9
$SKETCHINC
 40
1.0
  9
$FILLETRAD
 40
0.0
  9
$AUNITS
 70
     0
  9
$AUPREC
 70
     0
  9
$MENU
  1
.
  9
$ELEVATION
 40
0.0
  9
$PELEVATION
 40
0.0
  9
$THICKNESS
 40
0.0
  9
$LIMCHECK
 70
     0
  9
$CHAMFERA
 40
0.0
  9
$CHAMFERB
 40
0.0
  9
$CHAMFERC
 40
0.0
  9
$CHAMFERD
 40
0.0
  9
$SKPOLY
 70
     0
  9
$TDCREATE
 40
2458414.679024502
  9
$TDUCREATE
 40
2458414.637357836
  9
$TDUPDATE
 40
2458414.681937385
  9
$TDUUPDATE
 40
2458414.640270718
  9
$TDINDWG
 40
0.0029131944
  9
$TDUSRTIMER
 40
0.0029131481
  9
$USRTIMER
 70
     1
  9
$ANGBASE
 50
0.0
  9
$ANGDIR
 70
     0
  9
$PDMODE
 70
     0
  9
$PDSIZE
 40
0.0
  9
$PLINEWID
 40
0.0
  9
$SPLFRAME
 70
     0
  9
$SPLINETYPE
 70
     6
  9
$SPLINESEGS
 70
     8
  9
$HANDSEED
  5
56D
  9
$SURFTAB1
 70
     6
  9
$SURFTAB2
 70
     6
  9
$SURFTYPE
 70
     6
  9
$SURFU
 70
     6
  9
$SURFV
 70
     6
  9
$UCSBASE
  2

  9
$UCSNAME
  2

  9
$UCSORG
 10
0.0
 20
0.0
 30
0.0
  9
$UCSXDIR
 10
1.0
 20
0.0
 30
0.0
  9
$UCSYDIR
 10
0.0
 20
1.0
 30
0.0
  9
$UCSORTHOREF
  2

  9
$UCSORTHOVIEW
 70
     0
  9
$UCSORGTOP
 10
0.0
 20
0.0
 30
0.0
  9
$UCSORGBOTTOM
 10
0.0
 20
0.0
 30
0.0
  9
$UCSORGLEFT
 10
0.0
 20
0.0
 30
0.0
  9
$UCSORGRIGHT
 10
0.0
 20
0.0
 30
0.0
  9
$UCSORGFRONT
 10
0.0
 20
0.0
 30
0.0
  9
$UCSORGBACK
 10
0.0
 20
0.0
 30
0.0
  9
$PUCSBASE
  2

  9
$PUCSNAME
  2

  9
$PUCSORG
 10
0.0
 20
0.0
 30
0.0
  9
$PUCSXDIR
 10
1.0
 20
0.0
 30
0.0
  9
$PUCSYDIR
 10
0.0
 20
1.0
 30
0.0
  9
$PUCSORTHOREF
  2

  9
$PUCSORTHOVIEW
 70
     0
  9
$PUCSORGTOP
 10
0.0
 20
0.0
 30
0.0
  9
$PUCSORGBOTTOM
 10
0.0
 20
0.0
 30
0.0
  9
$PUCSORGLEFT
 10
0.0
 20
0.0
 30
0.0
  9
$PUCSORGRIGHT
 10
0.0
 20
0.0
 30
0.0
  9
$PUCSORGFRONT
 10
0.0
 20
0.0
 30
0.0
  9
$PUCSORGBACK
 10
0.0
 20
0.0
 30
0.0
  9
$USERI1
 70
     0
  9
$USERI2
 70
     0
  9
$USERI3
 70
     0
  9
$USERI4
 70
     0
  9
$USERI5
 70
     0
  9
$USERR1
 40
0.0
  9
$USERR2
 40
0.0
  9
$USERR3
 40
0.0
  9
$USERR4
 40
0.0
  9
$USERR5
 40
0.0
  9
$WORLDVIEW
 70
     1
  9
$SHADEDGE
 70
     3
  9
$SHADEDIF
 70
    70
  9
$TILEMODE
 70
     1
  9
$MAXACTVP
 70
    64
  9
$PINSBASE
 10
0.0
 20
0.0
 30
0.0
  9
$PLIMCHECK
 70
     0
  9
$PEXTMIN
 10
0.0
 20
0.0
 30
0.0
  9
$PEXTMAX
 10
0.0
 20
0.0
 30
0.0
  9
$PLIMMIN
 10
0.0
 20
0.0
  9
$PLIMMAX
 10
12.0
 20
9.0
  9
$UNITMODE
 70
     0
  9
$VISRETAIN
 70
     1
  9
$PLINEGEN
 70
     0
  9
$PSLTSCALE
 70
     1
  9
$TREEDEPTH
 70
  3020
  9
$CMLSTYLE
  2
Standard
  9
$CMLJUST
 70
     0
  9
$CMLSCALE
 40
20.0
  9
$PROXYGRAPHICS
 70
     1
  9
$MEASUREMENT
 70
     1
  9
$CELWEIGHT
370
    -1
  9
$ENDCAPS
280
     0
  9
$JOINSTYLE
280
     0
  9
$LWDISPLAY
290
     0
  9
$INSUNITS
 70
     4
  9
$HYPERLINKBASE
  1

  9
$STYLESHEET
  1

  9
$XEDIT
290
     1
  9
$CEPSNTYPE
380
     0
  9
$PSTYLEMODE
290
     1
  9
$FINGERPRINTGUID
  2
{A800F761-321B-4CE8-A39B-27E6ADBE4809}
  9
$VERSIONGUID
  2
{F5F34E8C-21ED-4D4C-A5ED-988EC9CAD0D6}
  9
$EXTNAMES
290
     1
  9
$PSVPSCALE
 40
0.0
  9
$OLESTARTUP
290
     0
  9
$SORTENTS
280
   127
  9
$INDEXCTL
280
     0
  9
$HIDETEXT
280
     1
  9
$XCLIPFRAME
290
     0
  9
$HALOGAP
280
     0
  9
$OBSCOLOR
 70
   257
  9
$OBSLTYPE
280
     0
  9
$INTERSECTIONDISPLAY
280
     0
  9
$INTERSECTIONCOLOR
 70
   257
  9
$DIMASSOC
280
     2
  9
$PROJECTNAME
  1

  9
$CAMERADISPLAY
290
     0
  9
$LENSLENGTH
 40
50.0
  9
$CAMERAHEIGHT
 40
0.0
  9
$STEPSPERSEC
 40
2.0
  9
$STEPSIZE
 40
6.0
  9
$3DDWFPREC
 40
2.0
  9
$PSOLWIDTH
 40
5.0
  9
$PSOLHEIGHT
 40
80.0
  9
$LOFTANG1
 40
1.570796326794896
  9
$LOFTANG2
 40
1.570796326794896
  9
$LOFTMAG1
 40
0.0
  9
$LOFTMAG2
 40
0.0
  9
$LOFTPARAM
 70
     7
  9
$LOFTNORMALS
280
     1
  9
$LATITUDE
 40
37.795
  9
$LONGITUDE
 40
-122.394
  9
$NORTHDIRECTION
 40
0.0
  9
$TIMEZONE
 70
 -8000
  9
$LIGHTGLYPHDISPLAY
280
     1
  9
$TILEMODELIGHTSYNCH
280
     1
  9
$CMATERIAL
347
EC
  9
$SOLIDHIST
280
     1
  9
$SHOWHIST
280
     1
  9
$DWFFRAME
280
     2
  9
$DGNFRAME
280
     0
  9
$REALWORLDSCALE
290
     1
  9
$INTERFERECOLOR
 62
     1
  9
$INTERFEREOBJVS
345
F9
  9
$INTERFEREVPVS
346
F6
  9
$CSHADOW
280
     0
  9
$SHADOWPLANELOCATION
 40
0.0
  0
ENDSEC
  0
SECTION
  2
CLASSES
  0
CLASS
  1
ACDBDICTIONARYWDFLT
  2
AcDbDictionaryWithDefault
  3
ObjectDBX Classes
 90
        0
 91
        1
280
     0
281
     0
  0
CLASS
  1
DICTIONARYVAR
  2
AcDbDictionaryVar
  3
ObjectDBX Classes
 90
        0
 91
        3
280
     0
281
     0
  0
CLASS
  1
TABLESTYLE
  2
AcDbTableStyle
  3
ObjectDBX Classes
 90
     4095
 91
        1
280
     0
281
     0
  0
CLASS
  1
MATERIAL
  2
AcDbMaterial
  3
ObjectDBX Classes
 90
     1024
 91
        3
280
     0
281
     0
  0
CLASS
  1
VISUALSTYLE
  2
AcDbVisualStyle
  3
ObjectDBX Classes
 90
     4095
 91
       16
280
     0
281
     0
  0
CLASS
  1
SORTENTSTABLE
  2
AcDbSortentsTable
  3
ObjectDBX Classes
 90
        0
 91
        2
280
     0
281
     0
  0
ENDSEC
  0
SECTION
  2
TABLES
  0
TABLE
  2
VPORT
  5
8
330
0
100
AcDbSymbolTable
 70
     1
  0
VPORT
  5
EA
330
8
100
AcDbSymbolTableRecord
100
AcDbViewportTableRecord
  2
*Active
 70
     0
 10
0.0
 20
0.0
 11
1.0
 21
1.0
 12
872.048158126554
 22
814.8795561309617
 13
0.0
 23
0.0
 14
10.0
 24
10.0
 15
10.0
 25
10.0
 16
0.0
 26
0.0
 36
1.0
 17
0.0
 27
0.0
 37
0.0
 40
71.60052796012132
 41
1.457978075517661
 42
50.0
 43
0.0
 44
0.0
 50
0.0
 51
0.0
 71
     0
 72
  1000
 73
     1
 74
     3
 75
     0
 76
     0
 77
     0
 78
     0
281
     0
 65
     1
110
0.0
120
0.0
130
0.0
111
1.0
121
0.0
131
0.0
112
0.0
122
1.0
132
0.0
 79
     0
146
0.0
348
F5
 60
     2
 61
     5
292
     1
282
     1
141
0.0
142
0.0
 63
   250
421
  3355443
  0
ENDTAB
  0
TABLE
  2
LTYPE
  5
5
330
0
100
AcDbSymbolTable
 70
     1
  0
LTYPE
  5
14
330
5
100
AcDbSymbolTableRecord
100
AcDbLinetypeTableRecord
  2
ByBlock
 70
     0
  3

 72
    65
 73
     0
 40
0.0
  0
LTYPE
  5
15
330
5
100
AcDbSymbolTableRecord
100
AcDbLinetypeTableRecord
  2
ByLayer
 70
     0
  3

 72
    65
 73
     0
 40
0.0
  0
LTYPE
  5
16
330
5
100
AcDbSymbolTableRecord
100
AcDbLinetypeTableRecord
  2
Continuous
 70
     0
  3
Solid line
 72
    65
 73
     0
 40
0.0
  0
ENDTAB
  0
TABLE
  2
LAYER
  5
2
102
{ACAD_XDICTIONARY
360
113
102
}
330
0
100
AcDbSymbolTable
 70
     8
  0
LAYER
  5
10
330
2
100
AcDbSymbolTableRecord
100
AcDbLayerTableRecord
  2
0
 70
     0
 62
     7
  6
Continuous
370
    -3
390
F
347
EE
  0
LAYER
  5
10F
330
2
100
AcDbSymbolTableRecord
100
AcDbLayerTableRecord
  2
Lorient text
 70
     0
 62
   252
  6
Continuous
370
    -3
390
F
347
EE
1001
AcAecLayerStandard
1000

1000

  0
LAYER
  5
111
330
2
100
AcDbSymbolTableRecord
100
AcDbLayerTableRecord
  2
Lorient dimension
 70
     0
 62
   252
  6
Continuous
370
    -3
390
F
347
EE
1001
AcAecLayerStandard
1000

1000

  0
LAYER
  5
112
330
2
100
AcDbSymbolTableRecord
100
AcDbLayerTableRecord
  2
Lorient profile
 70
     0
 62
   250
  6
Continuous
370
    -3
390
F
347
EE
1001
AcAecLayerStandard
1000

1000

  0
LAYER
  5
153
330
2
100
AcDbSymbolTableRecord
100
AcDbLayerTableRecord
  2
Defpoints
 70
     0
 62
     7
  6
Continuous
290
     0
370
    -3
390
F
347
EE
  0
ENDTAB
  0
TABLE
  2
STYLE
  5
3
330
0
100
AcDbSymbolTable
 70
     3
  0
STYLE
  5
11
330
3
100
AcDbSymbolTableRecord
100
AcDbTextStyleTableRecord
  2
Standard
 70
     0
 40
0.0
 41
1.0
 50
0.0
 71
     0
 42
2.5
  3
txt
  4

  0
STYLE
  5
116
330
3
100
AcDbSymbolTableRecord
100
AcDbTextStyleTableRecord
  2
Lorient
 70
     0
 40
0.0
 41
1.0
 50
0.0
 71
     0
 42
2.5
  3
utsaah.ttf
  4

1001
ACAD
1000
Utsaah
1071
       34
  0
STYLE
  5
156
330
3
100
AcDbSymbolTableRecord
100
AcDbTextStyleTableRecord
  2
ARIAL
 70
     0
 40
0.0
 41
1.0
 50
0.0
 71
     0
 42
1.0
  3
arial.ttf
  4

1001
ACAD
1000
Arial
1071
       34
  0
ENDTAB
  0
TABLE
  2
VIEW
  5
6
330
0
100
AcDbSymbolTable
 70
     0
  0
ENDTAB
  0
TABLE
  2
UCS
  5
7
330
0
100
AcDbSymbolTable
 70
     0
  0
ENDTAB
  0
TABLE
  2
APPID
  5
9
330
0
100
AcDbSymbolTable
 70
     4
  0
APPID
  5
12
330
9
100
AcDbSymbolTableRecord
100
AcDbRegAppTableRecord
  2
ACAD
 70
     0
  0
APPID
  5
9E
330
9
100
AcDbSymbolTableRecord
100
AcDbRegAppTableRecord
  2
ACAD_PSEXT
 70
     0
  0
APPID
  5
110
330
9
100
AcDbSymbolTableRecord
100
AcDbRegAppTableRecord
  2
AcAecLayerStandard
 70
     0
  0
APPID
  5
15C
330
9
100
AcDbSymbolTableRecord
100
AcDbRegAppTableRecord
  2
DCO15
 70
     0
  0
ENDTAB
  0
TABLE
  2
DIMSTYLE
  5
A
330
0
100
AcDbSymbolTable
 70
     7
100
AcDbDimStyleTable
 71
     2
340
157
340
11A
  0
DIMSTYLE
105
11A
102
{ACAD_REACTORS
330
365
330
32F
330
330
102
}
330
A
100
AcDbSymbolTableRecord
100
AcDbDimStyleTableRecord
  2
Lorient
 70
     0
 41
0.8
 42
0.5
 43
3.75
 44
0.5
 73
     0
 74
     0
 77
     1
 78
     8
140
1.5
141
2.5
143
0.03937007874016
147
0.5
171
     3
172
     1
271
     2
272
     2
274
     3
283
     0
284
     8
340
116
  0
DIMSTYLE
105
157
330
A
100
AcDbSymbolTableRecord
100
AcDbDimStyleTableRecord
  2
STANDARD
 70
     0
 40
0.1999999999999997
 41
3.0
 42
3.0
 43
10.0
 44
3.0
 48
0.000000001
 73
     0
 78
     8
140
3.999999999999998
141
3.0
145
1.0
146
0.6666666666666666
147
2.0
172
     1
176
     8
178
     8
271
     2
272
     2
284
     8
288
     1
289
     0
340
116
  0
ENDTAB
  0
TABLE
  2
BLOCK_RECORD
  5
1
330
0
100
AcDbSymbolTable
 70
     8
  0
BLOCK_RECORD
  5
1F
102
{ACAD_XDICTIONARY
360
452
102
}
330
1
100
AcDbSymbolTableRecord
100
AcDbBlockTableRecord
  2
*Model_Space
340
22
 70
     0
280
     1
281
     0
  0
BLOCK_RECORD
  5
D2
330
1
100
AcDbSymbolTableRecord
100
AcDbBlockTableRecord
  2
*Paper_Space
340
D3
 70
     0
280
     1
281
     0
  0
BLOCK_RECORD
  5
D6
330
1
100
AcDbSymbolTableRecord
100
AcDbBlockTableRecord
  2
*Paper_Space0
340
D7
 70
     0
280
     1
281
     0
  0
BLOCK_RECORD
  5
366
330
1
100
AcDbSymbolTableRecord
100
AcDbBlockTableRecord
  2
*D5
340
0
 70
     0
280
     1
281
     0
  0
BLOCK_RECORD
  5
372
330
1
100
AcDbSymbolTableRecord
100
AcDbBlockTableRecord
  2
*D6
340
0
 70
     0
280
     1
281
     0
  0
BLOCK_RECORD
  5
37E
330
1
100
AcDbSymbolTableRecord
100
AcDbBlockTableRecord
  2
*D7
340
0
 70
     0
280
     1
281
     0
  0
ENDTAB
  0
ENDSEC
  0
SECTION
  2
BLOCKS
  0
BLOCK
  5
20
330
1F
100
AcDbEntity
  8
0
100
AcDbBlockBegin
  2
*Model_Space
 70
     0
 10
0.0
 20
0.0
 30
0.0
  3
*Model_Space
  1

  0
ENDBLK
  5
21
330
1F
100
AcDbEntity
  8
0
100
AcDbBlockEnd
  0
BLOCK
  5
D4
330
D2
100
AcDbEntity
 67
     1
  8
0
100
AcDbBlockBegin
  2
*Paper_Space
 70
     0
 10
0.0
 20
0.0
 30
0.0
  3
*Paper_Space
  1

  0
ENDBLK
  5
D5
330
D2
100
AcDbEntity
 67
     1
  8
0
100
AcDbBlockEnd
  0
BLOCK
  5
D8
330
D6
100
AcDbEntity
 67
     1
  8
0
100
AcDbBlockBegin
  2
*Paper_Space0
 70
     0
 10
0.0
 20
0.0
 30
0.0
  3
*Paper_Space0
  1

  0
ENDBLK
  5
D9
330
D6
100
AcDbEntity
 67
     1
  8
0
100
AcDbBlockEnd
  0
BLOCK
  5
370
330
366
100
AcDbEntity
  8
0
100
AcDbBlockBegin
  2
*D5
 70
     1
 10
0.0
 20
0.0
 30
0.0
  3
*D5
  1

  0
LINE
  5
558
330
366
100
AcDbEntity
  8
Lorient dimension
 62
     0
 48
100.0
370
    -2
100
AcDbLine
 10
906.7540571986372
 20
810.8979685987673
 30
0.0
 11
906.7540571986372
 21
806.8761413598547
 31
0.0
  0
LINE
  5
559
330
366
100
AcDbEntity
  8
Lorient dimension
 62
     0
 48
100.0
370
    -2
100
AcDbLine
 10
888.3040571986374
 20
811.9979685987672
 30
0.0
 11
888.3040571986374
 21
806.8761413598547
 31
0.0
  0
LINE
  5
55A
330
366
100
AcDbEntity
  8
Lorient dimension
 62
     0
 48
100.0
370
    -2
100
AcDbLine
 10
905.9540571986373
 20
807.3761413598546
 30
0.0
 11
889.1040571986373
 21
807.3761413598546
 31
0.0
  0
SOLID
  5
55B
330
366
100
AcDbEntity
  8
Lorient dimension
 62
     0
 48
100.0
100
AcDbTrace
 10
905.9540571986373
 20
807.5094746931879
 30
0.0
 11
905.9540571986373
 21
807.2428080265213
 31
0.0
 12
906.7540571986372
 22
807.3761413598546
 32
0.0
 13
906.7540571986372
 23
807.3761413598546
 33
0.0
  0
SOLID
  5
55C
330
366
100
AcDbEntity
  8
Lorient dimension
 62
     0
 48
100.0
100
AcDbTrace
 10
889.1040571986373
 20
807.5094746931879
 30
0.0
 11
889.1040571986373
 21
807.2428080265213
 31
0.0
 12
888.3040571986374
 22
807.3761413598546
 32
0.0
 13
888.3040571986374
 23
807.3761413598546
 33
0.0
  0
MTEXT
  5
55D
330
366
100
AcDbEntity
  8
Lorient dimension
 62
     0
 48
100.0
100
AcDbMText
 10
897.8259731318543
 20
808.641855645569
 30
0.0
 40
1.5
 41
0.0
 46
0.0
 71
     5
 72
     1
  1
18.0
  7
Lorient
 73
     1
 44
1.0
  0
POINT
  5
55E
330
366
100
AcDbEntity
  8
Defpoints
 62
     0
 48
100.0
100
AcDbPoint
 10
906.7540571986372
 20
811.3979685987674
 30
0.0
  0
POINT
  5
55F
330
366
100
AcDbEntity
  8
Defpoints
 62
     0
 48
100.0
100
AcDbPoint
 10
888.3040571986374
 20
812.4979685987673
 30
0.0
  0
POINT
  5
560
330
366
100
AcDbEntity
  8
Defpoints
 62
     0
 48
100.0
100
AcDbPoint
 10
888.3040571986374
 20
807.3761413598546
 30
0.0
  0
ENDBLK
  5
371
330
366
100
AcDbEntity
  8
0
100
AcDbBlockEnd
  0
BLOCK
  5
37C
330
372
100
AcDbEntity
  8
0
100
AcDbBlockBegin
  2
*D6
 70
     1
 10
0.0
 20
0.0
 30
0.0
  3
*D6
  1

  0
LINE
  5
561
330
372
100
AcDbEntity
  8
Lorient dimension
 62
     0
 48
100.0
370
    -2
100
AcDbLine
 10
907.0040571986373
 20
817.1479685987673
 30
0.0
 11
911.4822230924454
 21
817.1479685987673
 31
0.0
  0
LINE
  5
562
330
372
100
AcDbEntity
  8
Lorient dimension
 62
     0
 48
100.0
370
    -2
100
AcDbLine
 10
907.0040571986371
 20
811.1479685987674
 30
0.0
 11
911.4822230924454
 21
811.1479685987674
 31
0.0
  0
LINE
  5
563
330
372
100
AcDbEntity
  8
Lorient dimension
 62
     0
 48
100.0
370
    -2
100
AcDbLine
 10
910.9822230924454
 20
816.3479685987674
 30
0.0
 11
910.9822230924454
 21
811.9479685987673
 31
0.0
  0
SOLID
  5
564
330
372
100
AcDbEntity
  8
Lorient dimension
 62
     0
 48
100.0
100
AcDbTrace
 10
910.848889759112
 20
816.3479685987674
 30
0.0
 11
911.1155564257787
 21
816.3479685987674
 31
0.0
 12
910.9822230924454
 22
817.1479685987673
 32
0.0
 13
910.9822230924454
 23
817.1479685987673
 33
0.0
  0
SOLID
  5
565
330
372
100
AcDbEntity
  8
Lorient dimension
 62
     0
 48
100.0
100
AcDbTrace
 10
910.848889759112
 20
811.9479685987673
 30
0.0
 11
911.1155564257787
 21
811.9479685987673
 31
0.0
 12
910.9822230924454
 22
811.1479685987674
 32
0.0
 13
910.9822230924454
 23
811.1479685987674
 33
0.0
  0
MTEXT
  5
566
330
372
100
AcDbEntity
  8
Lorient dimension
 62
     0
 48
100.0
100
AcDbMText
 10
909.716508806731
 20
813.9202870206808
 30
0.0
 40
1.5
 41
0.0
 46
0.0
 71
     5
 72
     1
  1
6
  7
Lorient
 11
0.0000000000000001
 21
1.0
 31
0.0
 73
     1
 44
1.0
  0
POINT
  5
567
330
372
100
AcDbEntity
  8
Defpoints
 62
     0
 48
100.0
100
AcDbPoint
 10
906.5040571986372
 20
817.1479685987673
 30
0.0
  0
POINT
  5
568
330
372
100
AcDbEntity
  8
Defpoints
 62
     0
 48
100.0
100
AcDbPoint
 10
906.504057198637
 20
811.1479685987674
 30
0.0
  0
POINT
  5
569
330
372
100
AcDbEntity
  8
Defpoints
 62
     0
 48
100.0
100
AcDbPoint
 10
910.9822230924454
 20
811.1479685987674
 30
0.0
  0
ENDBLK
  5
37D
330
372
100
AcDbEntity
  8
0
100
AcDbBlockEnd
  0
BLOCK
  5
388
330
37E
100
AcDbEntity
  8
0
100
AcDbBlockBegin
  2
*D7
 70
     1
 10
0.0
 20
0.0
 30
0.0
  3
*D7
  1

  0
LINE
  5
54F
330
37E
100
AcDbEntity
  8
Lorient dimension
 62
     0
 48
100.0
370
    -2
100
AcDbLine
 10
833.4900060214719
 20
810.897968598768
 30
0.0
 11
833.4900060214719
 21
803.0935978660714
 31
0.0
  0
LINE
  5
550
330
37E
100
AcDbEntity
  8
Lorient dimension
 62
     0
 48
100.0
370
    -2
100
AcDbLine
 10
906.7540571986372
 20
810.897968598768
 30
0.0
 11
906.7540571986372
 21
803.0935978660714
 31
0.0
  0
LINE
  5
551
330
37E
100
AcDbEntity
  8
Lorient dimension
 62
     0
 48
100.0
370
    -2
100
AcDbLine
 10
834.290006021472
 20
803.5935978660713
 30
0.0
 11
905.9540571986373
 21
803.5935978660713
 31
0.0
  0
SOLID
  5
552
330
37E
100
AcDbEntity
  8
Lorient dimension
 62
     0
 48
100.0
100
AcDbTrace
 10
834.290006021472
 20
803.7269311994046
 30
0.0
 11
834.290006021472
 21
803.460264532738
 31
0.0
 12
833.4900060214719
 22
803.5935978660713
 32
0.0
 13
833.4900060214719
 23
803.5935978660713
 33
0.0
  0
SOLID
  5
553
330
37E
100
AcDbEntity
  8
Lorient dimension
 62
     0
 48
100.0
100
AcDbTrace
 10
905.9540571986373
 20
803.7269311994046
 30
0.0
 11
905.9540571986373
 21
803.460264532738
 31
0.0
 12
906.7540571986372
 22
803.5935978660713
 32
0.0
 13
906.7540571986372
 23
803.5935978660713
 33
0.0
  0
MTEXT
  5
554
330
37E
100
AcDbEntity
  8
Lorient dimension
 62
     0
 48
100.0
100
AcDbMText
 10
870.1220316100545
 20
804.8593121517855
 30
0.0
 40
1.5
 41
0.0
 46
0.0
 71
     5
 72
     1
  1
70mm REF
  7
Lorient
 73
     1
 44
1.0
  0
POINT
  5
555
330
37E
100
AcDbEntity
  8
Defpoints
 62
     0
 48
100.0
100
AcDbPoint
 10
833.4900060214719
 20
811.3979685987679
 30
0.0
  0
POINT
  5
556
330
37E
100
AcDbEntity
  8
Defpoints
 62
     0
 48
100.0
100
AcDbPoint
 10
906.7540571986372
 20
811.3979685987679
 30
0.0
  0
POINT
  5
557
330
37E
100
AcDbEntity
  8
Defpoints
 62
     0
 48
100.0
100
AcDbPoint
 10
906.7540571986372
 20
803.5935978660713
 30
0.0
  0
ENDBLK
  5
389
330
37E
100
AcDbEntity
  8
0
100
AcDbBlockEnd
  0
ENDSEC
  0
SECTION
  2
ENTITIES
  0
TEXT
  5
266
330
1F
100
AcDbEntity
  8
Lorient text
 62
     8
 48
100.0
100
AcDbText
 10
834.454753713973
 20
827.4350798067249
 30
0.0
 40
2.0
  1
LAS9050
  7
ARIAL
100
AcDbText
  0
DIMENSION
  5
32F
330
1F
100
AcDbEntity
  8
Lorient dimension
 48
100.0
100
AcDbDimension
  2
*D5
 10
888.3040571986374
 20
807.3761413598546
 30
0.0
 11
897.8259731318543
 21
807.3761413598546
 31
0.0
 70
   160
  1
18.0
 71
     5
 42
18.44999999999993
 73
     0
 74
     0
 75
     0
  3
Lorient
100
AcDbAlignedDimension
 13
906.7540571986372
 23
811.3979685987674
 33
0.0
 14
888.3040571986374
 24
812.4979685987673
 34
0.0
100
AcDbRotatedDimension
1001
ACAD
1000
DSTYLE
1002
{
1070
   340
1005
116
1002
}
  0
DIMENSION
  5
330
330
1F
100
AcDbEntity
  8
Lorient dimension
 48
100.0
100
AcDbDimension
  2
*D6
 10
910.9822230924454
 20
811.1479685987674
 30
0.0
 11
910.9822230924452
 21
813.9202870206808
 31
0.0
 70
   160
 71
     5
 42
6.0
 73
     0
 74
     0
 75
     0
  3
Lorient
100
AcDbAlignedDimension
 13
906.5040571986372
 23
817.1479685987673
 33
0.0
 14
906.504057198637
 24
811.1479685987674
 34
0.0
 50
90.0
100
AcDbRotatedDimension
1001
ACAD
1000
DSTYLE
1002
{
1070
   340
1005
116
1002
}
  0
DIMENSION
  5
365
330
1F
100
AcDbEntity
  8
Lorient dimension
 48
100.0
100
AcDbDimension
  2
*D7
 10
906.7540571986372
 20
803.5935978660713
 30
0.0
 11
870.1220316100545
 21
803.5935978660713
 31
0.0
 70
   160
  1
70mm REF
 71
     5
 42
73.26405117716524
 73
     0
 74
     0
 75
     0
  3
Lorient
100
AcDbAlignedDimension
 13
833.4900060214719
 23
811.3979685987679
 33
0.0
 14
906.7540571986372
 24
811.3979685987679
 34
0.0
100
AcDbRotatedDimension
1001
ACAD
1000
DSTYLE
1002
{
1070
   340
1005
116
1002
}
  0
LWPOLYLINE
  5
451
330
1F
100
AcDbEntity
  8
Lorient profile
  6
Continuous
 62
     7
370
    15
100
AcDbPolyline
 90
       20
 70
     1
 43
0.0
 10
893.8239731818415
 20
814.9065789908062
 42
0.1853390449314943
 10
893.893469273704
 20
815.0319532592298
 10
894.1453558988071
 20
816.8242197249139
 42
-0.3738846794848645
 10
894.5414631263037
 20
817.1685504845299
 10
904.1960337360038
 20
817.1685504845298
 42
-0.3738846794848645
 10
904.5921409635043
 20
816.8242197249295
 10
904.844027588556
 20
815.031953259238
 42
0.1853390449314942
 10
904.9135236804035
 20
814.9065789907297
 10
905.0661648501417
 20
814.7784978415536
 42
-0.221694662642844
 10
905.1376073282041
 20
814.6252889529298
 10
905.1376073282037
 20
812.9185504845297
 42
-0.8722326371673418
 10
904.4505267332038
 20
812.8243343901297
 10
903.5846016715952
 20
815.9223882527298
 42
0.3364594443531351
 10
903.3919841887042
 20
816.0685504845298
 10
895.3455126735045
 20
816.0685504845298
 42
0.336459444353135
 10
895.1528951906041
 20
815.9223882527298
 10
894.286970129063
 20
812.8243343901793
 42
-0.8722326371673418
 10
893.5998895340045
 20
812.9185504845299
 10
893.5998895340041
 20
814.62528895293
 42
-0.221694662642844
 10
893.6713320121043
 20
814.7784978415298
  0
LWPOLYLINE
  5
467
330
1F
100
AcDbEntity
  8
Lorient profile
  6
Continuous
 62
     7
370
    15
100
AcDbPolyline
 90
       20
 70
     1
 43
0.0
 10
835.265052243904
 20
814.8800327306897
 42
0.1853390449314943
 10
835.3345483357664
 20
815.0054069991131
 10
835.5864349608696
 20
816.797673464797
 42
-0.3738846794848645
 10
835.9825421883662
 20
817.1420042244132
 10
845.6371127980663
 20
817.1420042244131
 42
-0.3738846794848645
 10
846.0332200255669
 20
816.7976734648128
 10
846.2851066506186
 20
815.0054069991213
 42
0.1853390449314942
 10
846.354602742466
 20
814.880032730613
 10
846.5072439122041
 20
814.7519515814369
 42
-0.221694662642844
 10
846.5786863902664
 20
814.5987426928131
 10
846.578686390266
 20
812.892004224413
 42
-0.8722326371673418
 10
845.8916057952663
 20
812.7977881300131
 10
845.0256807336575
 20
815.8958419926133
 42
0.3364594443531351
 10
844.8330632507666
 20
816.0420042244131
 10
836.7865917355668
 20
816.0420042244131
 42
0.336459444353135
 10
836.5939742526663
 20
815.8958419926133
 10
835.7280491911254
 20
812.7977881300626
 42
-0.8722326371673418
 10
835.0409685960668
 20
812.8920042244132
 10
835.0409685960666
 20
814.5987426928133
 42
-0.221694662642844
 10
835.1124110741668
 20
814.7519515814131
  0
LWPOLYLINE
  5
47B
330
1F
100
AcDbEntity
  8
Lorient profile
 48
100.0
100
AcDbPolyline
 90
      106
 70
     1
 43
0.0
 10
882.3478639253263
 20
824.1106658799557
 42
0.5000000007342546
 10
881.8528958907124
 20
823.9913110507298
 42
-0.4142135623242005
 10
881.4315985072328
 20
823.9412259767096
 10
880.0914885500825
 20
824.7661675540205
 42
-0.4950433001593677
 10
879.9955097238983
 20
825.2335384220057
 42
0.4234164005736046
 10
879.841186057934
 20
825.6637202597971
 10
878.4132428647787
 20
826.3515670051088
 42
0.4142135623731251
 10
878.0127723055144
 20
826.2114837043098
 10
877.9693744291037
 20
826.1213913942995
 42
-0.381193750348953
 10
877.6005044381667
 20
825.9682488127483
 10
876.0820098331059
 20
826.4966423797595
 42
-0.4950433001602168
 10
875.8871485181009
 20
826.9321610719323
 42
0.4234164005761364
 10
875.6433745483183
 20
827.3187441278214
 10
874.1004020264456
 20
827.6812226853266
 42
0.4142135623728282
 10
873.739743794011
 20
827.4577822248522
 10
873.716874165351
 20
827.3604324427003
 42
-0.4142135623237379
 10
873.356215932967
 20
827.1369919822198
 10
871.7930284678754
 20
827.3182880169546
 42
-0.4950433001593583
 10
871.5085226464982
 20
827.7013074693579
 42
0.4234164005689295
 10
871.1868552057959
 20
828.0259646193348
 10
869.6020025745404
 20
828.0458906107426
 42
0.4142135623728952
 10
869.298254749283
 20
827.7496858527603
 10
869.2969975714039
 20
827.6496937555537
 42
-0.4142135623238768
 10
868.9932497461969
 20
827.3534889975765
 10
867.4278764218811
 20
827.1921519009376
 42
-0.495043300159302
 10
867.0672139420592
 20
827.5045139328261
 42
0.4234164005712193
 10
866.6829026358753
 20
827.7518538353488
 10
865.1460103100307
 20
827.431349354477
 42
0.5000000007235129
 10
864.9192820938887
 20
826.9754620366585
 42
-0.4142135623236068
 10
864.686844748431
 20
826.6205354521332
 10
863.1934967611606
 20
826.1242138909004
 42
-0.4950433001594672
 10
862.7737759046011
 20
826.3511100475147
 42
0.4234164005765459
 10
862.3450401578644
 20
826.509406816004
 10
860.9002547890073
 20
825.8576782330484
 42
0.4142135623731392
 10
860.7501473096188
 20
825.460856176414
 10
860.7912664058265
 20
825.3697012537436
 42
-0.4142135623240337
 10
860.6411589264817
 20
824.972879197135
 10
859.2906328963708
 20
824.1651027768158
 42
-0.414213562318
 10
858.8707279020987
 20
824.2257640968754
 42
0.5000000007266243
 10
858.3789170943596
 20
824.3575254719065
 10
857.1094387904841
 20
823.4085366711802
 42
0.4142135623728354
 10
857.0487774704581
 20
822.9886316768631
 10
857.108651416174
 20
822.908537291139
 42
-0.4142135623237072
 10
857.0479900961847
 20
822.4886322968563
 10
855.9043117420383
 20
821.4076960704828
 42
-0.4950433001592696
 10
855.4280250020534
 20
821.4359521252552
 42
0.4234164005712345
 10
854.97255935107
 20
821.3982261631723
 10
853.9483714564696
 20
820.2083520941776
 42
0.5000000007190725
 10
854.04602248392
 20
819.7086489749377
 42
-0.4142135623268872
 10
854.0776831542796
 20
819.2855678929683
 10
853.107785280363
 20
817.8347157827557
 42
0.1387795292185147
 10
852.3662342280456
 20
815.2144843883975
 10
852.3662342280456
 20
812.2429691023617
 10
850.1567674771756
 20
812.2429691023617
 10
850.1567674771756
 20
813.2429691023617
 10
850.6662342280458
 20
813.2429691023615
 42
0.5727925126482172
 10
850.797153334461
 20
813.4661824042343
 10
850.649028270898
 20
813.7310577815595
 42
0.2716235510509455
 10
849.7762342280456
 20
814.2429691023616
 10
849.3562342280457
 20
814.2429691023616
 42
0.2716235510508774
 10
848.4834401851898
 20
813.7310577815616
 10
848.3353151216176
 20
813.4661824042412
 42
0.5727925126481989
 10
848.4662342280454
 20
813.2429691023617
 10
849.0461011012335
 20
813.2429691023617
 10
849.0461011012396
 20
811.490459841546
 42
0.3298598572756425
 10
849.4162342280278
 20
810.9429691023617
 10
849.7079766585502
 20
810.9429691023615
 42
0.6546536707079853
 10
850.6244917975458
 20
810.9429691023617
 10
852.2079766585502
 20
810.9429691023615
 42
0.6559664029064058
 10
853.1252233918516
 20
810.944653829352
 42
0.4384738702063124
 10
853.6662342280457
 20
811.4429691023616
 10
853.6662342280456
 20
816.2000513564967
 42
-0.5979836023875606
 10
886.7064113153849
 20
816.2000513564965
 10
886.7064113153849
 20
811.4429691023616
 42
0.4142135623730951
 10
887.206411315385
 20
810.9429691023617
 10
887.2481537458893
 20
810.9429691023615
 42
0.6546536707079853
 10
888.1646688848805
 20
810.9429691023617
 10
889.7481537458896
 20
810.9429691023615
 42
0.6546536707079853
 10
890.6646688848805
 20
810.9429691023617
 10
890.9564113153544
 20
810.9429691023521
 42
0.3411718529551072
 10
891.3450545122056
 20
811.4932093319678
 10
891.3450545122056
 20
813.2429691023617
 10
891.9064113153851
 20
813.2429691023615
 42
0.5727925126482503
 10
892.0373304218005
 20
813.4661824042343
 10
891.8892053582375
 20
813.7310577815597
 42
0.2716235510508773
 10
891.016411315385
 20
814.2429691023616
 10
890.5964113153849
 20
814.2429691023616
 42
0.2716235510509455
 10
889.7236172725291
 20
813.7310577815615
 10
889.5754922089572
 20
813.4661824042412
 42
0.5727925126481989
 10
889.7064113153851
 20
813.2429691023617
 10
890.1924385576521
 20
813.2429691023617
 10
890.1924385576521
 20
812.2429691023617
 10
888.0064113153851
 20
812.2429691023617
 10
888.0064113153851
 20
815.2144843883979
 42
0.1553950119775263
 10
887.2648602630677
 20
817.8347157827561
 10
886.5338748292016
 20
818.94608012994
 42
-0.4142135623187177
 10
886.5761624145235
 20
819.3682314773194
 10
886.6535689033087
 20
819.4315421043421
 42
0.4142135623731208
 10
886.6958564885953
 20
819.8536934517646
 10
885.6828864562332
 20
821.0921972723225
 42
0.4142135623730693
 10
885.2607351088108
 20
821.1344848576093
 10
885.183328620026
 20
821.0711742305868
 42
-0.414213562323757
 10
884.76117727264
 20
821.113461815838
 10
883.6313833088871
 20
822.2089018656342
 42
-0.4950433001592662
 10
883.6388371343479
 20
822.6859677979778
 42
0.4234164005745294
 10
883.5812799463573
 20
823.1393543632325
  0
LWPOLYLINE
  5
487
330
1F
100
AcDbEntity
  8
Lorient profile
  6
Continuous
 62
     7
370
    15
100
AcDbPolyline
 90
       53
 70
     1
 43
0.0
 10
848.2795721256723
 20
813.1537279165677
 10
848.8004399173224
 20
812.9886194425429
 42
-0.3269085594238201
 10
848.9400060214718
 20
812.7979685987673
 10
848.9400060214718
 20
811.3979685987677
 42
-0.4142135623730951
 10
848.6900060214718
 20
811.1479685987678
 10
845.636416182986
 20
811.147968598768
 42
0.5773502691895539
 10
844.9435958599721
 20
811.1479685987678
 10
844.5364161829855
 20
811.1479685987681
 42
0.5773502691895539
 10
843.8435958599727
 20
811.1479685987678
 10
843.4364161829861
 20
811.1479685987681
 42
0.5773502691895539
 10
842.7435958599724
 20
811.1479685987678
 10
838.9364161829861
 20
811.1479685987681
 42
0.5773502691895539
 10
838.2435958599725
 20
811.1479685987678
 10
837.8364161829857
 20
811.1479685987681
 42
0.5773502691895539
 10
837.143595859972
 20
811.1479685987678
 10
836.7364161829863
 20
811.1479685987681
 42
0.5773502691895539
 10
836.0435958599717
 20
811.1479685987678
 10
833.740006021472
 20
811.147968598768
 42
-0.4142135623730951
 10
833.4900060214719
 20
811.3979685987679
 10
833.4900060214721
 20
816.8979685987679
 42
-0.4142135623730951
 10
833.740006021472
 20
817.147968598768
 10
835.3400060214724
 20
817.147968598768
 42
-0.4142135623730951
 10
835.5900060214723
 20
816.8979685987679
 10
835.3396893277462
 20
815.1168727753718
 42
-0.185339044931436
 10
835.3049412818725
 20
815.0541856411679
 10
834.9757272605035
 20
814.7779422772796
 42
0.221694662642844
 10
834.9400060214719
 20
814.7013378329676
 10
834.9400060214726
 20
812.7479685987678
 42
0.4142135623730951
 10
835.1400060214725
 20
812.5479685987675
 10
840.4431433248126
 20
812.5479685987679
 42
0.3779644730093995
 10
841.2368687181722
 20
812.5479685987675
 10
846.5400060214722
 20
812.5479685987677
 42
0.4142135623730951
 10
846.7400060214719
 20
812.7479685987676
 10
846.7400060214725
 20
814.7013378329674
 42
0.221694662642844
 10
846.7042847824721
 20
814.7779422772677
 10
846.375070761103
 20
815.0541856411557
 42
-0.185339044931436
 10
846.3403227151719
 20
815.1168727753677
 10
846.0900060214724
 20
816.8979685987677
 42
-0.4142135623730951
 10
846.3400060214723
 20
817.1479685987677
 10
851.7400060214722
 20
817.147968598768
 42
-0.4142135623730951
 10
851.9400060214719
 20
816.9479685987679
 10
851.9400060214719
 20
812.4979685987675
 42
-0.4142135623730951
 10
851.740006021472
 20
812.2979685987672
 10
850.1400060214725
 20
812.2979685987674
 10
850.1400060214724
 20
812.7979685987673
 42
-0.3269085594238201
 10
850.2795721256722
 20
812.9886194425679
 10
850.8004399173225
 20
813.153727916492
 42
0.3269085594238202
 10
850.9400060214717
 20
813.3443787602676
 10
850.9400060214726
 20
814.1479685987677
 42
0.4142135623730951
 10
850.6400060214726
 20
814.4479685987679
 10
848.4400060214719
 20
814.4479685987677
 42
0.4142135623730951
 10
848.1400060214726
 20
814.1479685987677
 10
848.1400060214722
 20
813.3443787602676
 42
0.3269085594238202
  0
LWPOLYLINE
  5
4BC
330
1F
100
AcDbEntity
  8
Lorient profile
  6
Continuous
 62
     7
370
    15
100
AcDbPolyline
 90
       53
 70
     1
 43
0.0
 10
891.964491094437
 20
813.1537279165673
 10
891.4436233027869
 20
812.9886194425425
 42
0.3269085594238201
 10
891.3040571986373
 20
812.797968598767
 10
891.3040571986373
 20
811.3979685987674
 42
0.4142135623730951
 10
891.5540571986372
 20
811.1479685987674
 10
894.6076470371233
 20
811.1479685987676
 42
-0.5773502691895539
 10
895.300467360137
 20
811.1479685987674
 10
895.7076470371235
 20
811.1479685987676
 42
-0.5773502691895539
 10
896.4004673601365
 20
811.1479685987674
 10
896.8076470371229
 20
811.1479685987676
 42
-0.5773502691895539
 10
897.5004673601368
 20
811.1479685987674
 10
901.3076470371229
 20
811.1479685987676
 42
-0.5773502691895539
 10
902.0004673601368
 20
811.1479685987674
 10
902.4076470371236
 20
811.1479685987676
 42
-0.5773502691895539
 10
903.1004673601373
 20
811.1479685987674
 10
903.507647037123
 20
811.1479685987676
 42
-0.5773502691895539
 10
904.2004673601377
 20
811.1479685987674
 10
906.5040571986372
 20
811.1479685987674
 42
0.4142135623730951
 10
906.7540571986372
 20
811.3979685987674
 10
906.7540571986372
 20
816.8979685987673
 42
0.4142135623730951
 10
906.5040571986372
 20
817.1479685987673
 10
904.904057198637
 20
817.1479685987673
 42
0.4142135623730951
 10
904.6540571986367
 20
816.8979685987673
 10
904.9043738923629
 20
815.1168727753711
 42
0.185339044931436
 10
904.9391219382368
 20
815.0541856411674
 10
905.2683359596057
 20
814.7779422772789
 42
-0.221694662642844
 10
905.3040571986374
 20
814.701337832967
 10
905.3040571986366
 20
812.7479685987673
 42
-0.4142135623730951
 10
905.1040571986368
 20
812.547968598767
 10
899.8009198952965
 20
812.5479685987674
 42
-0.3779644730093995
 10
899.0071945019369
 20
812.547968598767
 10
893.704057198637
 20
812.5479685987674
 42
-0.4142135623730951
 10
893.5040571986373
 20
812.7479685987673
 10
893.5040571986366
 20
814.701337832967
 42
-0.221694662642844
 10
893.5397784376373
 20
814.7779422772673
 10
893.8689924590061
 20
815.0541856411553
 42
0.185339044931436
 10
893.9037405049374
 20
815.1168727753674
 10
894.1540571986367
 20
816.8979685987673
 42
0.4142135623730951
 10
893.9040571986367
 20
817.1479685987673
 10
888.5040571986372
 20
817.1479685987677
 42
0.4142135623730951
 10
888.3040571986374
 20
816.9479685987676
 10
888.3040571986374
 20
812.4979685987673
 42
0.4142135623730951
 10
888.5040571986372
 20
812.2979685987671
 10
890.1040571986365
 20
812.2979685987671
 10
890.1040571986369
 20
812.797968598767
 42
0.3269085594238201
 10
889.964491094437
 20
812.9886194425676
 10
889.4436233027867
 20
813.1537279164918
 42
-0.3269085594238202
 10
889.3040571986373
 20
813.3443787602672
 10
889.3040571986366
 20
814.1479685987674
 42
-0.4142135623730951
 10
889.6040571986366
 20
814.4479685987676
 10
891.8040571986374
 20
814.4479685987674
 42
-0.4142135623730951
 10
892.1040571986367
 20
814.1479685987674
 10
892.1040571986369
 20
813.3443787602672
 42
-0.3269085594238202
  0
ENDSEC
  0
SECTION
  2
OBJECTS
  0
DICTIONARY
  5
C
330
0
100
AcDbDictionary
281
     1
  3
ACAD_COLOR
350
6B
  3
ACAD_GROUP
350
D
  3
ACAD_LAYOUT
350
1A
  3
ACAD_MATERIAL
350
6A
  3
ACAD_MLINESTYLE
350
17
  3
ACAD_PLOTSETTINGS
350
19
  3
ACAD_PLOTSTYLENAME
350
E
  3
ACAD_TABLESTYLE
350
7E
  3
ACAD_VISUALSTYLE
350
EF
  3
AcDbVariableDictionary
350
5E
  3
ASE_INDEX_DICTIONARY
350
56B
  0
DICTIONARY
  5
113
330
2
100
AcDbDictionary
280
     1
281
     1
  3
ACAD_LAYERFILTERS
360
115
  3
ACAD_LAYERSTATES
360
15D
  3
ACLYDICTIONARY
360
114
  0
DICTIONARY
  5
452
330
1F
100
AcDbDictionary
280
     1
281
     1
  3
ACAD_SORTENTS
360
453
  0
DICTIONARY
  5
6B
102
{ACAD_REACTORS
330
C
102
}
330
C
100
AcDbDictionary
281
     1
  0
DICTIONARY
  5
D
102
{ACAD_REACTORS
330
C
102
}
330
C
100
AcDbDictionary
281
     1
  0
DICTIONARY
  5
1A
102
{ACAD_REACTORS
330
C
102
}
330
C
100
AcDbDictionary
281
     1
  3
Layout1
350
D3
  3
Layout2
350
D7
  3
Model
350
22
  0
DICTIONARY
  5
6A
102
{ACAD_REACTORS
330
C
102
}
330
C
100
AcDbDictionary
281
     1
  3
ByBlock
350
ED
  3
ByLayer
350
EC
  3
Global
350
EE
  0
DICTIONARY
  5
17
102
{ACAD_REACTORS
330
C
102
}
330
C
100
AcDbDictionary
281
     1
  3
Standard
350
18
  0
DICTIONARY
  5
19
102
{ACAD_REACTORS
330
C
102
}
330
C
100
AcDbDictionary
281
     1
  0
ACDBDICTIONARYWDFLT
  5
E
102
{ACAD_REACTORS
330
C
102
}
330
C
100
AcDbDictionary
281
     1
  3
Normal
350
F
100
AcDbDictionaryWithDefault
340
F
  0
DICTIONARY
  5
7E
102
{ACAD_REACTORS
330
C
102
}
330
C
100
AcDbDictionary
281
     1
  3
Standard
350
7F
  0
DICTIONARY
  5
EF
102
{ACAD_REACTORS
330
C
102
}
330
C
100
AcDbDictionary
281
     1
  3
2dWireframe
350
F5
  3
3D Hidden
350
F7
  3
3dWireframe
350
F6
  3
Basic
350
F4
  3
Brighten
350
FB
  3
ColorChange
350
FF
  3
Conceptual
350
F8
  3
Dim
350
FA
  3
Facepattern
350
FE
  3
Flat
350
F0
  3
FlatWithEdges
350
F1
  3
Gouraud
350
F2
  3
GouraudWithEdges
350
F3
  3
Linepattern
350
FD
  3
Realistic
350
F9
  3
Thicken
350
FC
  0
DICTIONARY
  5
5E
102
{ACAD_REACTORS
330
C
102
}
330
C
100
AcDbDictionary
281
     1
  3
CTABLESTYLE
350
84
  3
DIMASSOC
350
5F
  3
HIDETEXT
350
63
  0
DICTIONARY
  5
56B
102
{ACAD_REACTORS
330
C
102
}
330
C
100
AcDbDictionary
281
     1
  3
ASEBlockHierarchyIndexRecord
350
56C
1001
DCO15
1040
1953631015.39
  0
DICTIONARY
  5
115
102
{ACAD_REACTORS
330
113
102
}
330
113
100
AcDbDictionary
281
     1
  0
DICTIONARY
  5
15D
102
{ACAD_REACTORS
330
113
102
}
330
113
100
AcDbDictionary
281
     1
  0
DICTIONARY
  5
114
102
{ACAD_REACTORS
330
113
102
}
330
113
100
AcDbDictionary
281
     1
1001
ACAD
1000
<All
  0
SORTENTSTABLE
  5
453
102
{ACAD_REACTORS
330
452
102
}
330
452
100
AcDbSortentsTable
330
1F
331
330
  5
519
331
47B
  5
525
331
451
  5
54D
331
32F
  5
518
331
4BC
  5
4E2
331
467
  5
539
331
266
  5
266
331
365
  5
54E
331
487
  5
517
  0
LAYOUT
  5
D3
102
{ACAD_REACTORS
330
1A
102
}
330
1A
100
AcDbPlotSettings
  1

  2
C:\Documents and Settings\basas\Application Data\Autodesk\AutoCAD 2005\R16.1\enu\plotters\Default Windows System Printer.pc3
  4

  6

 40
0.0
 41
0.0
 42
0.0
 43
0.0
 44
0.0
 45
0.0
 46
0.0
 47
0.0
 48
0.0
 49
0.0
140
0.0
141
0.0
142
1.0
143
1.0
 70
   688
 72
     0
 73
     0
 74
     5
  7

 75
    16
147
1.0
 76
     0
 77
     2
 78
   300
148
0.0
149
0.0
100
AcDbLayout
  1
Layout1
 70
     1
 71
     1
 10
0.0
 20
0.0
 11
12.0
 21
9.0
 12
0.0
 22
0.0
 32
0.0
 14
0.0
 24
0.0
 34
0.0
 15
0.0
 25
0.0
 35
0.0
146
0.0
 13
0.0
 23
0.0
 33
0.0
 16
1.0
 26
0.0
 36
0.0
 17
0.0
 27
1.0
 37
0.0
 76
     0
330
D2
  0
LAYOUT
  5
D7
102
{ACAD_REACTORS
330
1A
102
}
330
1A
100
AcDbPlotSettings
  1

  2
C:\Documents and Settings\basas\Application Data\Autodesk\AutoCAD 2005\R16.1\enu\plotters\Default Windows System Printer.pc3
  4

  6

 40
0.0
 41
0.0
 42
0.0
 43
0.0
 44
0.0
 45
0.0
 46
0.0
 47
0.0
 48
0.0
 49
0.0
140
0.0
141
0.0
142
1.0
143
1.0
 70
   688
 72
     0
 73
     0
 74
     5
  7

 75
    16
147
1.0
 76
     0
 77
     2
 78
   300
148
0.0
149
0.0
100
AcDbLayout
  1
Layout2
 70
     1
 71
     2
 10
0.0
 20
0.0
 11
12.0
 21
9.0
 12
0.0
 22
0.0
 32
0.0
 14
0.0
 24
0.0
 34
0.0
 15
0.0
 25
0.0
 35
0.0
146
0.0
 13
0.0
 23
0.0
 33
0.0
 16
1.0
 26
0.0
 36
0.0
 17
0.0
 27
1.0
 37
0.0
 76
     0
330
D6
  0
LAYOUT
  5
22
102
{ACAD_REACTORS
330
1A
102
}
330
1A
100
AcDbPlotSettings
  1

  2
none_device
  4
ISO_A4_(210.00_x_297.00_MM)
  6

 40
7.5
 41
20.0
 42
7.5
 43
20.0
 44
210.0
 45
297.0
 46
11.54999923706054
 47
-13.65000009536743
 48
0.0
 49
0.0
140
0.0
141
0.0
142
1.0
143
8.704084754739808
 70
 11952
 72
     1
 73
     0
 74
     0
  7

 75
     0
147
0.1148885871608098
 76
     0
 77
     2
 78
   300
148
0.0
149
0.0
100
AcDbLayout
  1
Model
 70
     1
 71
     0
 10
0.0
 20
0.0
 11
12.0
 21
9.0
 12
0.0
 22
0.0
 32
0.0
 14
0.0
 24
0.0
 34
0.0
 15
0.0
 25
0.0
 35
0.0
146
0.0
 13
0.0
 23
0.0
 33
0.0
 16
1.0
 26
0.0
 36
0.0
 17
0.0
 27
1.0
 37
0.0
 76
     0
330
1F
331
EA
1001
ACAD_PSEXT
1000
None
1000
None
1000
Not applicable
1000
The layout will not be plotted unless a new plotter configuration name is selected.
1070
     0
  0
MATERIAL
  5
ED
102
{ACAD_REACTORS
330
6A
102
}
330
6A
100
AcDbMaterial
  1
ByBlock
  0
MATERIAL
  5
EC
102
{ACAD_REACTORS
330
6A
102
}
330
6A
100
AcDbMaterial
  1
ByLayer
  0
MATERIAL
  5
EE
102
{ACAD_REACTORS
330
6A
102
}
330
6A
100
AcDbMaterial
  1
Global
  0
MLINESTYLE
  5
18
102
{ACAD_REACTORS
330
17
102
}
330
17
100
AcDbMlineStyle
  2
STANDARD
 70
     0
  3

 62
   256
 51
90.0
 52
90.0
 71
     2
 49
0.5
 62
   256
  6
BYLAYER
 49
-0.5
 62
   256
  6
BYLAYER
  0
ACDBPLACEHOLDER
  5
F
102
{ACAD_REACTORS
330
E
102
}
330
E
  0
TABLESTYLE
  5
7F
102
{ACAD_REACTORS
330
7E
102
}
330
7E
100
AcDbTableStyle
  3
Standard
 70
     0
 71
     0
 40
1.5
 41
1.5
280
     0
281
     0
  7
Standard
140
4.5
170
     2
 62
     0
 63
     7
283
     0
 90
      512
 91
        0
  1

274
    -2
284
     1
 64
     0
275
    -2
285
     1
 65
     0
276
    -2
286
     1
 66
     0
277
    -2
287
     1
 67
     0
278
    -2
288
     1
 68
     0
279
    -2
289
     1
 69
     0
  7
Standard
140
6.0
170
     5
 62
     0
 63
     7
283
     0
 90
      512
 91
        0
  1

274
    -2
284
     1
 64
     0
275
    -2
285
     1
 65
     0
276
    -2
286
     1
 66
     0
277
    -2
287
     1
 67
     0
278
    -2
288
     1
 68
     0
279
    -2
289
     1
 69
     0
  7
Standard
140
4.5
170
     5
 62
     0
 63
     7
283
     0
 90
      512
 91
        0
  1

274
    -2
284
     1
 64
     0
275
    -2
285
     1
 65
     0
276
    -2
286
     1
 66
     0
277
    -2
287
     1
 67
     0
278
    -2
288
     1
 68
     0
279
    -2
289
     1
 69
     0
  0
VISUALSTYLE
  5
F5
102
{ACAD_REACTORS
330
EF
102
}
330
EF
100
AcDbVisualStyle
  2
2dWireframe
 70
     4
 71
     0
 72
     2
 73
     1
 90
        0
 40
-0.6
 41
-30.0
 62
     5
 63
     7
421
 16777215
 74
     1
 91
        4
 64
     7
 65
   257
 75
     1
175
     1
 42
1.0
 92
        0
 66
   257
 43
1.0
 76
     1
 77
     6
 78
     2
 67
     7
 79
     5
170
     0
171
     0
290
     0
174
     0
 93
        1
 44
0.0
173
     0
291
     0
 45
0.0
  0
VISUALSTYLE
  5
F7
102
{ACAD_REACTORS
330
EF
102
}
330
EF
100
AcDbVisualStyle
  2
3D Hidden
 70
     6
 71
     1
 72
     2
 73
     2
 90
        0
 40
-0.6
 41
-30.0
 62
     5
 63
     7
421
 16777215
 74
     2
 91
        2
 64
     7
 65
   257
 75
     2
175
     1
 42
40.0
 92
        0
 66
   257
 43
1.0
 76
     1
 77
     6
 78
     2
 67
     7
 79
     3
170
     0
171
     0
290
     0
174
     0
 93
        1
 44
0.0
173
     0
291
     0
 45
0.0
  0
VISUALSTYLE
  5
F6
102
{ACAD_REACTORS
330
EF
102
}
330
EF
100
AcDbVisualStyle
  2
3dWireframe
 70
     5
 71
     0
 72
     2
 73
     1
 90
        0
 40
-0.6
 41
-30.0
 62
     5
 63
     7
421
 16777215
 74
     1
 91
        4
 64
     7
 65
   257
 75
     1
175
     1
 42
1.0
 92
        0
 66
   257
 43
1.0
 76
     1
 77
     6
 78
     2
 67
     7
 79
     5
170
     0
171
     0
290
     0
174
     0
 93
        1
 44
0.0
173
     0
291
     0
 45
0.0
  0
VISUALSTYLE
  5
F4
102
{ACAD_REACTORS
330
EF
102
}
330
EF
100
AcDbVisualStyle
  2
Basic
 70
     7
 71
     1
 72
     0
 73
     1
 90
        0
 40
-0.6
 41
-30.0
 62
     5
 63
     7
421
 16777215
 74
     0
 91
        4
 64
     7
 65
   257
 75
     1
175
     1
 42
1.0
 92
        8
 66
     7
 43
1.0
 76
     1
 77
     6
 78
     2
 67
     7
 79
     5
170
     0
171
     0
290
     0
174
     0
 93
        1
 44
0.0
173
     0
291
     1
 45
0.0
  0
VISUALSTYLE
  5
FB
102
{ACAD_REACTORS
330
EF
102
}
330
EF
100
AcDbVisualStyle
  2
Brighten
 70
    12
 71
     2
 72
     2
 73
     1
 90
        0
 40
-0.6
 41
-30.0
 62
     5
 63
     7
421
 16777215
 74
     1
 91
        4
 64
     7
 65
   257
 75
     1
175
     1
 42
1.0
 92
        8
 66
     7
 43
1.0
 76
     1
 77
     6
 78
     2
 67
     7
 79
     5
170
     0
171
     0
290
     0
174
     0
 93
        1
 44
50.0
173
     0
291
     1
 45
0.0
  0
VISUALSTYLE
  5
FF
102
{ACAD_REACTORS
330
EF
102
}
330
EF
100
AcDbVisualStyle
  2
ColorChange
 70
    16
 71
     2
 72
     2
 73
     3
 90
        0
 40
-0.6
 41
-30.0
 62
     5
 63
     8
421
  8421504
 74
     1
 91
        4
 64
     7
 65
   257
 75
     1
175
     1
 42
1.0
 92
        8
 66
     8
424
  8421504
 43
1.0
 76
     1
 77
     6
 78
     2
 67
     7
 79
     5
170
     0
171
     0
290
     0
174
     0
 93
        1
 44
0.0
173
     0
291
     1
 45
0.0
  0
VISUALSTYLE
  5
F8
102
{ACAD_REACTORS
330
EF
102
}
330
EF
100
AcDbVisualStyle
  2
Conceptual
 70
     9
 71
     3
 72
     2
 73
     1
 90
        0
 40
-0.6
 41
-30.0
 62
     5
 63
     7
421
 16777215
 74
     2
 91
        2
 64
     7
 65
   257
 75
     1
175
     1
 42
40.0
 92
        8
 66
     7
 43
1.0
 76
     1
 77
     6
 78
     2
 67
     7
 79
     3
170
     0
171
     0
290
     0
174
     0
 93
        1
 44
0.0
173
     0
291
     0
 45
0.0
  0
VISUALSTYLE
  5
FA
102
{ACAD_REACTORS
330
EF
102
}
330
EF
100
AcDbVisualStyle
  2
Dim
 70
    11
 71
     2
 72
     2
 73
     1
 90
        0
 40
-0.6
 41
-30.0
 62
     5
 63
     7
421
 16777215
 74
     1
 91
        4
 64
     7
 65
   257
 75
     1
175
     1
 42
1.0
 92
        8
 66
     7
 43
1.0
 76
     1
 77
     6
 78
     2
 67
     7
 79
     5
170
     0
171
     0
290
     0
174
     0
 93
        1
 44
-50.0
173
     0
291
     1
 45
0.0
  0
VISUALSTYLE
  5
FE
102
{ACAD_REACTORS
330
EF
102
}
330
EF
100
AcDbVisualStyle
  2
Facepattern
 70
    15
 71
     2
 72
     2
 73
     1
 90
        0
 40
-0.6
 41
-30.0
 62
     5
 63
     7
421
 16777215
 74
     1
 91
        4
 64
     7
 65
   257
 75
     1
175
     1
 42
1.0
 92
        8
 66
     7
 43
1.0
 76
     1
 77
     6
 78
     2
 67
     7
 79
     5
170
     0
171
     0
290
     0
174
     0
 93
        1
 44
0.0
173
     0
291
     1
 45
0.0
  0
VISUALSTYLE
  5
F0
102
{ACAD_REACTORS
330
EF
102
}
330
EF
100
AcDbVisualStyle
  2
Flat
 70
     0
 71
     2
 72
     1
 73
     1
 90
        2
 40
-0.6
 41
30.0
 62
     5
 63
     7
421
 16777215
 74
     0
 91
        4
 64
     7
 65
   257
 75
     1
175
     1
 42
1.0
 92
        8
 66
     7
 43
1.0
 76
     1
 77
     6
 78
     2
 67
     7
 79
     5
170
     0
171
     0
290
     0
174
     0
 93
        1
 44
0.0
173
     0
291
     1
 45
0.0
  0
VISUALSTYLE
  5
F1
102
{ACAD_REACTORS
330
EF
102
}
330
EF
100
AcDbVisualStyle
  2
FlatWithEdges
 70
     1
 71
     2
 72
     1
 73
     1
 90
        2
 40
-0.6
 41
30.0
 62
     5
 63
     7
421
 16777215
 74
     1
 91
        4
 64
     7
 65
   257
 75
     1
175
     1
 42
1.0
 92
        0
 66
   257
 43
1.0
 76
     1
 77
     6
 78
     2
 67
     7
 79
     5
170
     0
171
     0
290
     0
174
     0
 93
        1
 44
0.0
173
     0
291
     1
 45
0.0
  0
VISUALSTYLE
  5
F2
102
{ACAD_REACTORS
330
EF
102
}
330
EF
100
AcDbVisualStyle
  2
Gouraud
 70
     2
 71
     2
 72
     2
 73
     1
 90
        2
 40
-0.6
 41
30.0
 62
     5
 63
     7
421
 16777215
 74
     0
 91
        4
 64
     7
 65
   257
 75
     1
175
     1
 42
1.0
 92
        0
 66
     7
 43
1.0
 76
     1
 77
     6
 78
     2
 67
     7
 79
     5
170
     0
171
     0
290
     0
174
     0
 93
        1
 44
0.0
173
     0
291
     1
 45
0.0
  0
VISUALSTYLE
  5
F3
102
{ACAD_REACTORS
330
EF
102
}
330
EF
100
AcDbVisualStyle
  2
GouraudWithEdges
 70
     3
 71
     2
 72
     2
 73
     1
 90
        2
 40
-0.6
 41
30.0
 62
     5
 63
     7
421
 16777215
 74
     1
 91
        4
 64
     7
 65
   257
 75
     1
175
     1
 42
1.0
 92
        0
 66
   257
 43
1.0
 76
     1
 77
     6
 78
     2
 67
     7
 79
     5
170
     0
171
     0
290
     0
174
     0
 93
        1
 44
0.0
173
     0
291
     1
 45
0.0
  0
VISUALSTYLE
  5
FD
102
{ACAD_REACTORS
330
EF
102
}
330
EF
100
AcDbVisualStyle
  2
Linepattern
 70
    14
 71
     2
 72
     2
 73
     1
 90
        0
 40
-0.6
 41
-30.0
 62
     5
 63
     7
421
 16777215
 74
     1
 91
        4
 64
     7
 65
   257
 75
     7
175
     7
 42
1.0
 92
        8
 66
     7
 43
1.0
 76
     1
 77
     6
 78
     2
 67
     7
 79
     5
170
     0
171
     0
290
     0
174
     0
 93
        1
 44
0.0
173
     0
291
     1
 45
0.0
  0
VISUALSTYLE
  5
F9
102
{ACAD_REACTORS
330
EF
102
}
330
EF
100
AcDbVisualStyle
  2
Realistic
 70
     8
 71
     2
 72
     2
 73
     1
 90
        0
 40
-0.6
 41
-30.0
 62
     5
 63
     7
421
 16777215
 74
     1
 91
        0
 64
     7
 65
   257
 75
     1
175
     1
 42
1.0
 92
        8
 66
     8
424
  7895160
 43
1.0
 76
     1
 77
     6
 78
     2
 67
     7
 79
     5
170
     0
171
     0
290
     0
174
     0
 93
       13
 44
0.0
173
     0
291
     0
 45
0.0
  0
VISUALSTYLE
  5
FC
102
{ACAD_REACTORS
330
EF
102
}
330
EF
100
AcDbVisualStyle
  2
Thicken
 70
    13
 71
     2
 72
     2
 73
     1
 90
        0
 40
-0.6
 41
-30.0
 62
     5
 63
     7
421
 16777215
 74
     1
 91
        4
 64
     7
 65
   257
 75
     1
175
     1
 42
1.0
 92
       12
 66
     7
 43
1.0
 76
     1
 77
     6
 78
     2
 67
     7
 79
     5
170
     0
171
     0
290
     0
174
     0
 93
        1
 44
0.0
173
     0
291
     1
 45
0.0
  0
DICTIONARYVAR
  5
84
102
{ACAD_REACTORS
330
5E
102
}
330
5E
100
DictionaryVariables
280
     0
  1
STANDARD
  0
DICTIONARYVAR
  5
5F
102
{ACAD_REACTORS
330
5E
102
}
330
5E
100
DictionaryVariables
280
     0
  1
2
  0
DICTIONARYVAR
  5
63
102
{ACAD_REACTORS
330
5E
102
}
330
5E
100
DictionaryVariables
280
     0
  1
1
  0
XRECORD
  5
56C
102
{ACAD_REACTORS
330
56B
102
}
330
56B
100
AcDbXrecord
280
     1
  0
ENDSEC
  0
EOF
